#TITLE:Sakura full moon;
#SUBTITLE:Initiate;
#ARTIST:Akito;
#TITLETRANSLIT:;
#SUBTITLETRANSLIT:;
#ARTISTTRANSLIT:;
#CREDIT:;
#BANNER:skrfm-bn.png;
#BACKGROUND:skrfm-bg.jpg;
#LYRICSPATH:;
#CDTITLE:cdtitle.png;
#MUSIC:Sakura full moon - Akito.ogg;
#OFFSET:0.000;
#SAMPLESTART:100.000;
#SAMPLELENGTH:12.000;
#SELECTABLE:YES;
#DISPLAYBPM:138.000;
#BPMS:0.000=138.000,64.000=69.000,72.000=138.000,136.000=69.000,144.000=138.000,240.000=69.000;
#STOPS:;
#BGCHANGES:;
// cache tags:
#FIRSTBEAT:0.000;
#LASTBEAT:258.000;
#SONGFILENAME:Songs/Initiate/Sakura full moon/Sakura full moon - Akito.sm;
#HASMUSIC:1;
#HASBANNER:1;
#MUSICLENGTH:128.695;
// end cache tags

//---------------dance-single - ----------------
#NOTES:
     dance-single:
     :
     Hard:
     8:
     1.000,1.000,1.000,1.000,0.886,658.000,192.000,144.000,0.000,108.000:
1001
0000
0100
0010
0001
0000
0000
0000
,
1001
0000
1000
0100
0010
0000
0001
0000
,
1001
0000
0001
0010
0100
1000
0100
0000
,
1001
0010
0100
0000
1001
0000
0110
0000
,
0101
0000
0001
0010
0100
0000
0000
0000
,
1010
0001
0010
0000
0101
0000
0110
0000
,
1100
0000
0001
0010
0101
0000
1010
0000
,
1001
0000
0000
0000
0002
0000
0000
0000
0000
0000
0010
0100
0010
1000
0010
0100
,
1013
0100
0010
0000
0101
0000
0010
0000
1001
0010
0100
1000
0011
1000
0100
0010
,
1001
0010
0001
0000
1001
0010
0101
0000
1001
0010
0001
0000
0102
0010
1000
0000
,
1003
1000
0100
0000
1010
0010
1100
0000
1001
0001
0110
1000
0110
0001
0100
1000
,
0011
0010
1100
0000
0101
0100
0010
0000
1001
0010
0001
0010
1000
0010
0100
0001
,
1100
0000
0010
0000
0011
1000
0100
0000
0101
0000
0000
0100
0010
0000
0100
0000
,
0001
1000
0001
0100
1000
0001
0010
0100
1000
0001
0000
0010
0001
1000
0100
0000
,
1001
0010
0000
0010
0101
0000
0100
0010
1001
0010
0100
0000
1001
0010
0000
0010
,
0102
1000
0100
1000
0100
1000
0100
1000
0100
0100
0100
0100
0100
0100
0100
0100
,
0123
0000
0000
0000
0000
0000
0032
0020
0203
0030
0000
0000
0000
0000
0302
0020
,
0203
0000
0030
0000
0000
0000
0320
0000
0002
0000
0230
0000
2003
0000
0320
0000
3002
0000
0230
0000
2013
0000
0301
0000
3010
0000
0001
0000
0100
0000
0010
0100
,
0012
1000
0010
0100
0000
1000
0000
0100
1000
0000
0010
0000
1213
0000
0020
0000
,
1302
0000
0030
0000
1000
0000
0000
0100
1010
0000
0100
0000
0123
0000
0200
0000
,
2031
0000
0300
0000
0101
0000
0000
0010
3201
0000
2010
0000
0312
0000
3200
0000
,
1023
0000
0300
0000
1100
0000
0000
0000
0100
1000
0100
1000
0100
0000
1000
0000
,
1031
0100
1000
0000
0011
0000
0001
0100
1000
0000
1001
0100
0011
1000
0101
0010
,
1001
0100
0000
1000
0100
0000
0100
1000
0100
0000
1001
0100
0011
1000
0011
1000
,
0212
1000
1010
1323
0201
2031
0312
3120
,
1203
0000
0031
0000
1310
0001
0010
0000
0101
0000
1000
0000
0100
0010
0001
1000
,
0101
0000
0000
0010
0100
0000
0100
0010
1000
0100
0010
0000
0001
0010
0100
1000
,
0101
0000
0000
1000
0100
0000
0010
0100
0001
0010
0100
0000
1000
0100
0010
0001
,
1100
0000
0000
0001
0100
0000
0010
1000
0011
0000
0100
0000
1010
0000
0100
0000
,
0101
1000
0100
0000
0101
0000
0020
0000
1000
0100
0001
0030
0001
0010
0100
1000
,
0011
1000
0000
1000
0011
0000
0100
1000
0011
0100
1000
0000
0001
0010
0100
1000
,
0011
0100
0000
1000
0011
0000
0100
1000
0011
0100
1000
0000
2012
0000
0000
0000
,
3123
1000
0100
1000
0100
1000
0100
1000
0100
1000
0100
1000
0100
1000
0100
1000
,
0130
0100
0100
0100
0100
0100
0102
0100
0120
0103
0102
0130
0120
0103
0102
0130
,
0120
0003
0000
0000
0000
0000
0032
0000
0020
0003
0002
0030
0020
0003
0002
0030
2000
0003
0000
0000
0000
0000
3001
0010
0200
0000
2000
0300
0200
3000
2000
0300
,
0002
3000
0000
0000
0000
0000
1000
0100
0023
0000
0002
0030
0200
0003
2000
0300
0002
3000
0020
0003
0200
0030
0000
0310
0001
0100
0010
0000
1000
0000
0010
0000
,
1001
0000
0000
0000
1001
0000
0000
0100
0010
0100
0010
0000
1000
0000
0010
0000
,
1001
0000
0000
0000
1001
0000
0000
0001
0001
0010
0100
0000
1000
0000
0100
0000
,
1010
0000
0000
0000
0012
0000
0200
0003
2010
0301
0210
3000
0021
0300
0002
0030
,
2100
0003
0020
3000
0201
0030
0000
0300
0001
0010
0201
0000
2000
0300
0200
3000
,
1021
0300
0000
0030
1001
0000
0000
1000
0100
1000
0120
0000
1002
0030
0200
0003
,
2010
0300
0000
3000
1001
0000
0000
0001
0010
0001
0210
0000
2001
0300
0200
3000
,
1012
0300
0000
0003
1001
0100
0010
0000
0002
0000
0020
0003
1200
0030
2000
0300
,
0211
3000
0002
0300
1120
0003
0000
1030
1000
0100
0002
1000
0120
1003
0100
0030
,
1002
0000
0000
0000
1023
0000
0200
0000
2031
0000
0321
0000
0200
0030
0002
0300
,
0120
0003
0000
0030
3201
0000
0020
1300
1000
0130
1002
0000
0120
0003
1000
0000
,
2132
0000
0000
0000
0113
0000
3000
0001
0110
0000
0100
0000
0110
0000
1001
0000
,
1002
0000
0000
0000
1020
0000
0000
0000
1203
1000
1032
0000
2020
0003
0302
0030
,
0220
0003
3000
0300
2031
0000
0200
3000
0021
0300
2000
0000
0200
3000
0002
0300
,
2130
0003
0000
3000
1001
0000
0000
1001
1001
0110
0110
0000
0100
0000
0001
0000
,
1002
0000
0000
0000
1100
0000
0000
0010
0100
0000
1000
0000
2013
0000
0001
0000
,
3210
0000
0001
0000
0321
0000
0200
0031
2010
0300
0001
0100
0010
0000
3001
0000
,
1001
0100
0011
0100
1011
0000
0011
0100
1011
0100
0000
0100
0001
0000
0100
0000
,
1001
0010
0001
0100
1010
0001
1000
0100
1001
0010
0000
0010
1001
0100
0010
0000
,
1001
0100
0010
1000
0100
0010
1000
0010
1001
0010
0000
0100
1010
0100
0001
0000
,
1100
0001
1100
0010
1100
0001
1100
0010
1100
0010
0101
0010
1100
0001
0010
0000
,
1100
0001
0100
0010
0001
1000
0100
1000
0001
0100
0000
1000
0101
0010
0101
0000
,
0101
1000
0100
0001
1000
0100
0001
0100
1000
0001
0000
0010
0201
0000
0001
0000
,
2301
0010
0001
0010
0001
0010
0001
0010
3201
0010
2001
0310
0201
3010
2001
0310
,
0201
3001
0001
0001
0001
0001
0001
0001
2001
0301
0001
0001
0001
0001
0001
0001
,
3101
0000
0010
0100
1000
0000
0000
0000
1001
0000
0100
0010
0001
0000
0001
0000
,
1001
0000
0001
0010
0100
1000
0100
0000
1100
0110
0011
0000
1001
0000
0010
0000
,
1001
0000
0100
0010
0001
0000
0000
0000
0010
0100
1000
0000
1000
0000
0100
0000
,
0010
0000
0000
0000
0000
0000
0000
0000
0001
0000
0000
0000
0010
0000
0000
0000
0100
0000
0000
0000
0000
0000
0000
0000
0100
0000
0000
0000
0000
0000
0000
0000
0100
0000
0000
0000
0010
0000
0000
0000
0001
0000
0000
0000
0010
0000
0000
0000
0200
0020
0002
0000
0000
0000
0000
0000
0000
0000
0000
0000
0000
0000
0000
0000
,
2333
0000
3000
0000
;

//---------------dance-single - Copied from----------------
#NOTES:
     dance-single:
     Copied from:
     Medium:
     8:
     1.000,1.000,1.000,0.847,0.913,663.000,193.000,109.000,0.000,85.000:
1001
0000
0100
0010
0001
0000
0000
0000
,
1001
0000
1000
0100
0010
0000
0001
0000
,
1001
0000
0001
0010
0100
1000
0100
0000
,
1001
0010
0100
0000
1001
0000
0110
0000
,
0101
0000
0001
0010
0100
0000
0000
0000
,
1010
0001
0010
0000
0101
0000
0110
0000
,
1100
0000
0001
0010
0101
0000
1010
0000
,
1001
0000
0000
0000
0002
0000
0000
0000
0000
0000
0010
0100
0010
1000
0010
0100
,
1013
0100
0010
0000
0101
0000
0010
0000
1001
0010
0100
1000
0011
1000
0100
0010
,
1001
0010
0001
0000
1001
0010
0101
0000
1001
0010
0001
0000
0102
0010
1000
0000
,
1003
1000
0100
0000
1010
0010
1100
0000
1001
0001
0110
1000
0110
0001
0100
1000
,
0011
0010
1100
0000
0101
0100
0010
0000
1001
0010
0001
0010
1000
0010
0100
0001
,
1100
0000
0010
0000
0011
1000
0100
0000
0101
0000
0000
0100
0010
0000
0100
0000
,
0001
1000
0001
0100
1000
0001
0010
0100
1000
0001
0000
0010
0001
1000
0100
0000
,
1001
0010
0000
0010
0101
0000
0100
0010
1001
0010
0100
0000
1001
0010
0000
0010
,
0102
1000
0100
1000
0100
1000
0100
1000
0100
0010
0100
0010
0100
0010
0100
0010
,
2103
0000
0000
0000
0000
0000
3001
0010
0200
0000
0000
0000
0000
0000
0301
0010
,
0200
0000
0000
0000
0000
0000
0310
0000
0001
0000
0100
0000
1000
0000
0010
0000
0001
0000
0100
0000
2010
0000
0001
0000
3010
0000
0001
0000
0100
0000
0010
0100
,
0012
1000
0010
0100
0000
1000
0000
0100
1000
0000
0010
0000
1213
0000
0320
0000
,
1032
0000
0000
0000
1000
0000
0000
0100
1010
0000
0100
0000
0123
0000
0230
0000
,
2301
0000
0000
0000
0101
0000
0000
0010
3201
0000
2310
0000
0012
0000
3200
0000
,
1323
0000
0000
0000
1100
0000
0000
0000
0100
1000
0100
1000
0100
0000
1000
0000
,
1031
0100
1000
0000
0011
0000
0001
0100
1000
0000
1001
0100
0011
1000
0101
0010
,
1001
0100
0000
1000
0100
0000
0100
1000
0100
0000
1001
0100
0011
1000
0011
1000
,
0212
1000
1010
1323
0231
2301
3012
0123
,
1230
0000
0001
0000
1310
0001
0010
0000
0101
0000
1000
0000
0100
0010
0001
1000
,
0101
0000
0000
0010
0100
0000
0100
0010
1000
0100
0010
0000
0001
0010
0100
1000
,
0101
0000
0000
1000
0100
0000
0010
0100
0001
0010
0100
0000
1000
0100
0010
0001
,
1100
0000
0000
0001
0100
0000
0010
1000
0011
0000
0100
0000
1010
0000
0100
0000
,
0101
1000
0100
0000
0101
0000
0020
0000
1000
0100
0001
0030
0001
0010
0100
1000
,
0011
1000
0000
1000
0011
0000
0100
1000
0011
0100
1000
0000
0001
0010
0100
1000
,
0011
0100
0000
1000
0011
0000
0100
1000
0011
0100
1000
0000
2012
0000
0000
0000
,
3123
1000
0100
1000
0100
1000
0100
1000
0100
1000
0100
1000
0100
1000
0100
1000
,
0130
0010
0100
0010
0100
0010
0102
0010
2103
0010
3102
0010
2103
0010
3102
0010
,
2100
0003
0000
0000
0000
0000
3001
0000
0010
0000
0001
0000
0010
0000
0001
0000
2000
0000
0000
0000
0000
0000
3001
0010
0100
0000
1000
0000
0100
0000
1000
0000
,
0002
0000
0000
0000
0000
0000
1000
0100
0013
0000
0001
0000
0100
0000
1000
0000
0001
0000
0010
0000
2000
0000
0000
0010
3001
0100
0010
0000
1000
0000
0010
0000
,
1001
0000
0000
0000
1001
0000
0000
0100
0010
0100
0010
0000
1000
0000
0010
0000
,
1001
0000
0000
0000
1001
0000
0000
0001
0001
0010
0100
0000
1000
0000
0100
0000
,
1010
0000
0000
0000
0012
0000
0200
0013
2301
0010
3201
0000
0321
0000
0032
0000
,
2103
0000
3020
0000
0231
0000
0000
0010
0001
0010
0001
0000
1001
0000
0010
0000
,
1321
0000
0000
0030
1001
0000
0000
1000
0102
1000
0123
0000
1032
0000
0203
0000
,
2310
0000
0000
3000
1001
0000
0000
0001
2010
0001
3210
0000
2301
0000
3200
0000
,
1312
0000
0000
0003
1001
0000
0000
1000
0102
1000
0123
0000
1230
0000
2300
0000
,
3211
0000
0302
0000
1123
0000
0000
1000
1000
0100
0000
1000
0100
1000
0100
0000
,
1032
0000
0000
0000
1023
0000
0230
0001
2310
0001
0010
0000
0200
0000
0302
0000
,
0123
0000
0030
0000
3201
0000
0320
1000
1000
0130
1002
0000
0123
0000
1000
0000
,
2132
0000
0000
0000
3113
0000
0000
0001
0110
0000
0100
0000
0110
0000
1001
0000
,
1002
0000
0000
0000
1023
0000
0000
0001
1230
0001
1020
0000
2330
0000
0001
0000
,
3020
0000
0000
0000
2031
0000
3200
0001
1320
0001
1000
0000
1002
0000
0100
0000
,
2133
0000
0000
3000
1001
0000
0000
1001
1001
0110
0110
0000
0100
0000
0001
0000
,
1002
0000
0000
0000
1100
0000
0000
0010
0100
0000
1000
0000
2013
0000
0001
0000
,
3210
0000
0001
0000
0321
0000
0230
0001
2310
0000
0001
0100
0010
0000
3001
0000
,
1001
0100
0011
0100
1011
0000
0011
0100
1011
0100
0000
0100
0001
0000
0100
0000
,
1001
0010
0001
0100
1010
0001
1000
0100
1001
0010
0000
0010
1001
0100
0010
0000
,
1001
0100
0010
1000
0100
0010
1000
0010
1001
0010
0000
0100
1010
0100
0001
0000
,
1100
0001
1100
0010
1100
0001
1100
0010
1100
0010
0101
0010
1100
0001
0010
0000
,
1100
0001
0100
0010
0001
1000
0100
1000
0001
0100
0000
1000
0101
0010
0101
0000
,
0101
1000
0100
0001
1000
0100
0001
0000
1000
0001
0000
0010
0201
0000
0001
0000
,
2301
0100
0001
0010
0001
0100
0001
0010
3201
0010
2301
0010
3201
0010
2301
0010
,
3201
0010
1000
0010
0001
0010
1000
0010
2301
0010
0001
0100
0001
0010
0001
0100
,
3011
0000
0010
0100
1000
0000
0000
0000
1001
0000
0100
0010
0001
0000
0001
0000
,
1001
0000
0001
0010
0100
1000
0100
0000
1100
0110
0011
0000
1001
0000
0010
0000
,
1001
0000
0100
0010
0001
0000
0000
0000
0010
0100
1000
0000
1000
0000
0100
0000
,
0010
0000
0000
0000
0000
0000
0000
0000
0001
0000
0000
0000
0010
0000
0000
0000
0100
0000
0000
0000
0000
0000
0000
0000
0100
0000
0000
0000
0000
0000
0000
0000
0100
0000
0000
0000
0010
0000
0000
0000
0001
0000
0000
0000
0010
0000
0000
0000
0200
0020
0002
0000
0000
0000
0000
0000
0000
0000
0000
0000
0000
0000
0000
0000
,
2333
0000
3000
0000
;

//---------------dance-single - Copied from Copied f----------------
#NOTES:
     dance-single:
     Copied from Copied f:
     Easy:
     4:
     0.609,0.827,0.987,0.288,0.233,384.000,127.000,37.000,0.000,15.000:
1001
0000
0100
0010
0001
0000
0000
0000
,
1001
0000
1000
0100
0010
0000
0001
0000
,
1001
0000
0001
0010
0100
1000
0100
0000
,
1001
0010
0100
0000
1001
0000
0110
0000
,
0101
0000
0001
0010
0100
0000
0000
0000
,
1010
0001
0010
0000
0101
0000
0110
0000
,
1100
0000
0001
0010
0101
0000
1010
0000
,
1001
0002
0000
0000
,
1013
0000
0101
0010
1001
0000
0011
0000
,
1001
0000
1001
0101
1001
0000
0102
0000
,
1003
0000
1010
1100
1001
0110
0110
0000
,
0011
1100
0101
0000
1001
0000
1001
0000
,
1100
0000
0011
0100
0101
0000
0000
0000
,
0000
0000
0101
0001
1010
0000
0001
0000
,
1001
0000
0101
0100
1001
0000
0001
0000
,
0102
0100
0100
0100
,
2103
0000
0000
0000
0000
0000
3001
0010
0200
0000
0000
0000
0000
0000
0301
0010
,
0200
0000
0000
0310
0001
0100
1000
0010
0001
0100
0010
0001
0010
0001
0100
0010
,
1002
0000
0000
0000
0000
0000
1003
0010
,
1002
0000
0000
0000
0000
0000
0013
0100
,
2001
0000
0000
0000
3001
0010
0010
0100
,
1020
0000
1100
0000
0100
0100
0100
1000
,
1031
0000
0011
0000
0010
0100
0011
0101
,
1001
0000
0100
0000
0100
0100
0011
0011
,
0011
0000
1010
0100
0001
0001
0010
0100
,
1000
0000
0001
0000
1010
0001
0010
0000
0101
0000
0000
0000
0100
0010
0001
1000
,
0101
0000
0000
0010
0100
0000
0000
0000
0000
0000
0000
0000
0001
0010
0100
1000
,
0101
0000
0000
1000
0100
0000
0010
0100
0000
0000
0000
0000
1000
0100
0010
0001
,
1100
0000
0000
0001
0100
0000
0010
1000
0011
0000
0100
0000
1010
0000
0100
0000
,
0101
0000
0000
0000
0010
0000
0020
0000
0000
0000
0000
0030
0001
0010
0100
1000
,
0011
0000
0000
0000
0011
0000
0000
0000
0011
0000
0000
0000
0001
0010
0100
1000
,
0011
0011
0011
1001
,
0020
0000
0000
0000
,
0230
0000
0000
0001
1000
0001
1000
0001
,
1300
0000
0000
0000
0000
0000
0001
0000
0010
0000
0001
0000
0010
0000
0001
0000
2000
0000
0000
0000
0000
0000
3001
0010
0100
0000
1000
0000
0100
0000
1000
0000
,
0002
0000
0000
0000
0000
0000
1000
0100
0013
0000
0001
0000
0100
0000
1000
0000
0001
0000
0010
0000
1000
0000
0000
0010
0001
0100
0010
0000
0100
0000
0010
0000
,
1001
0000
0000
0000
1001
0000
0000
0100
0010
0000
0010
0000
1000
0000
0010
0000
,
1001
0000
0000
0000
1001
0000
0000
0010
0001
0000
0100
0000
1000
0000
0100
0000
,
1010
0000
0000
0000
0010
0000
0000
0100
0010
0000
0010
0000
0001
0000
1000
0000
,
0100
0010
0200
0000
0000
0000
1001
0000
,
1301
0000
0000
0000
1001
0000
0000
0010
0100
0000
0010
0000
0001
0000
0100
0000
,
1010
0000
0000
0000
1001
0000
0000
0001
1000
0001
0100
0000
1000
0000
0100
0000
,
1010
0000
0000
0000
1001
0000
0000
0100
0001
0000
0010
0000
1000
0000
0100
0000
,
0011
0001
1120
0000
0000
0000
0000
0000
,
1032
0000
0013
0100
2001
0000
0000
0000
,
0100
3101
1000
0010
,
2100
0000
0000
0000
3100
0100
0010
1000
,
0010
0100
1020
0000
1030
0000
2000
0000
,
3020
0000
1031
0100
0021
0000
1030
0000
,
2100
0000
0000
3000
1001
0000
0000
0000
1000
0000
0000
0000
0100
0000
0000
0000
,
1002
0000
1100
0000
0100
0000
0013
0001
,
0010
1000
0010
0000
2010
0000
0010
3000
,
1100
1001
0110
1001
0110
0000
0000
0000
,
0100
1010
1001
1001
,
1001
0000
1000
0010
,
1100
1010
1100
1010
1100
0101
0101
0010
,
1100
0000
0001
0000
0001
0000
0101
0101
,
0101
1000
1000
0200
,
2300
0000
3200
0320
,
0230
0000
0001
0010
2301
0000
0000
0000
,
3011
0000
0010
0100
1000
0000
0000
0000
1001
0000
0100
0010
0001
0000
0001
0000
,
1001
0000
0001
0010
0100
1000
0100
0000
1100
0110
0011
0000
1001
0000
0010
0000
,
1001
0000
0100
0010
0001
0000
0000
0000
0010
0100
1000
0000
1000
0000
0100
0000
,
0010
0000
0000
0000
0000
0000
0000
0000
0001
0000
0000
0000
0010
0000
0000
0000
0100
0000
0000
0000
0000
0000
0000
0000
0100
0000
0000
0000
0000
0000
0000
0000
0100
0000
0000
0000
0010
0000
0000
0000
0001
0000
0000
0000
0010
0000
0000
0000
0200
0020
0002
0000
0000
0000
0000
0000
0000
0000
0000
0000
0000
0000
0000
0000
,
2333
0000
3000
0000
;

//---------------dance-single - Copied from Copied f----------------
#NOTES:
     dance-single:
     Copied from Copied f:
     Beginner:
     2:
     0.353,0.547,0.443,0.186,0.047,237.000,57.000,24.000,0.000,4.000:
1000
0000
0100
0010
0001
0000
0000
0000
,
0001
0000
1000
0100
0010
0000
0001
0000
,
1000
0000
0001
0010
0100
1000
0100
0000
,
0001
0010
0100
0000
1000
0000
0010
0000
,
0001
0000
0001
0010
0100
0000
0000
0000
,
1000
0001
0010
0000
0100
0000
0010
0000
,
0100
0000
0001
0010
0100
0000
1000
0000
,
1000
0000
0000
0000
,
1000
0001
1000
0001
,
1000
0001
0001
0100
,
1000
0001
0010
0100
,
0010
0100
1000
0001
,
1000
0010
0100
1000
,
0010
0001
1000
0001
,
1000
0001
1000
0010
,
0102
0000
0000
0000
,
2003
0000
0000
3000
0200
0000
0000
0300
,
0200
0000
0000
0000
,
1302
0000
0000
1003
,
1002
0000
0000
0013
,
2001
0000
3001
0010
,
1020
0100
0100
0100
,
1030
0001
0010
0011
,
1001
0100
0100
0011
,
0011
1000
0001
0010
,
1000
0001
1000
0010
0001
0000
0100
0000
,
0101
0100
0100
0001
,
0101
0100
0100
1000
,
1100
0100
0010
1000
,
0101
0000
0000
0000
0010
0000
0020
0000
0000
0000
0000
0030
1000
0000
0000
0000
,
0010
0001
0100
0001
,
0011
0011
0011
1001
,
0020
0000
0000
0000
,
0230
0000
0000
0000
,
0302
0000
0000
0003
2000
0000
0000
3000
,
0002
0000
0000
0003
0200
0000
0000
0000
,
1301
1001
0000
0000
,
1001
1001
0000
0000
,
1010
1001
0000
0000
,
1001
1001
0000
1001
,
1001
1001
0000
0000
,
1010
1001
0000
0000
,
1010
1001
0000
0000
,
0011
0110
0000
0000
,
1001
0010
2001
0000
,
0100
3101
1000
0010
,
2100
0000
3100
0010
,
0010
1020
1030
1000
,
0020
1031
0000
1000
,
2100
0000
0000
3000
1001
0000
0000
0000
0000
0000
0000
0000
0100
0000
0000
0000
,
1002
0000
0100
0013
,
0010
0010
0000
0000
,
1100
0110
0110
0000
,
0100
1010
1001
1001
,
1001
0000
1000
0010
,
1100
1100
1100
0101
,
1100
0001
0001
0101
,
0101
1000
1000
0100
,
2000
0000
3100
0010
,
0200
0000
2300
0000
,
3001
0000
0010
0100
1000
0000
0000
0000
1000
0000
0100
0010
0001
0000
0001
0000
,
1000
0000
0001
0010
0100
1000
0100
0000
1000
0100
0010
0000
1000
0000
0010
0000
,
1000
0000
0100
0010
0001
0000
0000
0000
0010
0100
1000
0000
1000
0000
0100
0000
,
0010
0000
0000
0000
0000
0000
0000
0000
0001
0000
0000
0000
0010
0000
0000
0000
0100
0000
0000
0000
0000
0000
0000
0000
0100
0000
0000
0000
0000
0000
0000
0000
0100
0000
0000
0000
0010
0000
0000
0000
0001
0000
0000
0000
0010
0000
0000
0000
0100
0010
0001
0000
0000
0000
0000
0000
0000
0000
0000
0000
0000
0000
0000
0000
,
1000
0000
0000
0000
;

//---------------dance-solo - ----------------
#NOTES:
     dance-solo:
     :
     Hard:
     8:
     1.000,1.000,1.000,0.901,0.886,658.000,195.000,116.000,0.000,100.000:
110000
000000
001000
000100
000010
000000
000000
000000
,
000011
000000
000100
001000
010000
000000
000010
000000
,
001100
000000
100000
010000
001000
000100
000010
000000
,
001100
000010
000100
000000
100100
000000
011000
000000
,
000011
000000
000010
000100
001000
000000
000000
000000
,
010100
000010
000100
000000
001010
000000
001100
000000
,
011000
000000
000010
000100
001010
000000
010100
000000
,
010010
000000
000000
000000
002200
000000
000000
000000
000000
000000
010000
000001
100000
010000
000010
010000
,
103301
000010
001000
000000
010001
000000
100000
000000
001001
010000
001000
000100
100001
001000
000100
000010
,
010001
000010
100000
000000
100001
010000
000101
000000
011000
000100
000010
000000
100002
010000
001000
000000
,
010003
001000
000100
000000
010010
001000
100100
000000
001001
010000
100010
001000
010010
100000
000100
001000
,
010001
000010
010100
000000
010001
000100
000010
000000
101000
010000
001000
000100
001000
000010
000100
000001
,
010010
000000
001000
000000
100010
010000
001000
000000
001010
000000
000000
001000
000100
000000
001000
000000
,
000001
010000
000010
001000
010000
000010
000100
010000
100000
000010
000000
000100
000010
010000
001000
000000
,
100001
000100
000000
000100
001010
000000
001000
000100
010001
000100
001000
000000
100010
000100
000000
000100
,
021020
000100
001000
100000
001000
000100
001000
100000
001000
000100
000001
000100
001000
000100
000001
000100
,
231030
000000
000000
000000
000000
000000
300001
000010
000200
000000
000000
000000
000000
000000
000310
000100
,
002000
000000
000000
000000
000000
000000
013000
000000
001000
000000
000100
000000
000010
000000
000001
000000
000010
000000
000100
000000
100001
000000
010010
000000
001100
000000
010010
000000
100001
000000
010000
001000
,
000120
100000
000001
000100
000000
001000
000000
010000
000100
000000
000100
000000
120031
000000
032000
000000
,
103012
000000
000000
000000
000100
000000
000000
000010
100100
000000
010000
000000
002013
000000
023000
000000
,
030102
000000
000000
000000
100010
000000
000000
000010
020103
000000
130002
000000
010023
000000
000230
000000
,
102300
000000
000000
000000
000011
000000
000000
000000
000001
000010
000001
000010
000001
000000
000010
000000
,
003101
010000
100000
000000
001100
000000
010000
000010
000001
000000
001001
010000
001100
000010
010100
001000
,
000101
010000
000000
100000
000010
000000
000001
000010
001000
000000
000101
010000
001100
000010
100100
000001
,
102020
000001
100100
013230
102300
023001
000120
031230
,
102300
000000
000001
000000
013100
000010
000100
000000
100010
000000
010000
000000
001000
000100
000010
010000
,
001001
000000
000000
000100
001000
000000
001000
000100
010000
001000
000100
000000
000010
000100
001000
010000
,
001001
000000
000000
010000
001000
000000
000100
001000
000010
000100
001000
000000
010000
001000
000100
000010
,
100100
000000
000000
000001
000100
000000
000010
001000
110000
000000
000100
000000
001010
000000
000100
000000
,
100100
001000
010000
000000
001001
000000
000020
000000
100000
010000
000100
000030
000001
000010
000100
001000
,
100001
001000
000000
001000
100001
000000
000100
001000
100001
000100
001000
000000
000001
000010
000100
001000
,
100001
000100
000000
001000
100001
000000
000100
001000
100001
000100
001000
000000
012002
000000
000000
000000
,
003203
100000
010000
001000
000010
001000
010000
001000
000010
001000
010000
001000
000010
001000
010000
000010
,
010300
001000
000100
000010
000100
001000
010002
001000
200103
000010
300102
001000
210003
001000
300102
000010
,
201003
000000
000000
000000
000000
000000
310000
000000
001000
000000
000100
000000
000010
000000
000001
000000
020000
000000
000000
000000
000000
000000
030010
000100
001000
000000
010000
000000
100000
000000
010000
000000
,
000020
000000
000000
000000
000000
000000
010000
001000
000130
000000
000010
000000
001000
000000
010000
000000
000010
000000
000100
000000
001000
000000
000000
000010
000001
001000
000100
000000
000001
000000
010000
000000
,
001100
000000
000000
000000
010010
000000
000000
000010
000100
001000
010000
000000
000001
000000
001000
000000
,
000101
000000
000000
000000
100100
000000
000000
010000
000010
000100
001000
000000
000001
000000
000010
000000
,
010001
000000
000000
000000
001002
000000
000023
000000
201030
000100
301002
000000
020103
000000
030020
000000
,
210030
000000
300002
000000
020013
000000
000000
030000
000100
000010
002100
000000
003002
000000
020003
000000
,
032101
000000
000000
003000
100001
000000
000000
001000
000100
001000
020100
000000
130002
000000
000023
000000
,
010230
000000
000000
000300
000101
000000
000000
000100
001000
000100
001002
000000
200103
000000
300020
000000
,
001231
000000
000000
000300
100100
001000
010000
000000
000002
000000
000023
000000
120030
000000
030200
000000
,
102301
000000
003020
000000
021031
000000
030000
000010
000010
001000
010002
000100
100023
001000
010030
000000
,
100020
000000
010032
000203
100300
000021
022030
003200
,
100302
000000
000003
000000
032010
000000
003200
100000
010000
001300
100002
000000
001203
000000
100000
000000
,
021320
000000
000000
000000
031130
000000
000000
000100
010010
000000
001000
000000
001100
000000
010010
000000
,
100002
000000
000000
000000
010023
000000
000000
000000
210030
000100
301002
000000
200203
000000
000320
000000
,
010230
000000
320310
032000
003012
200000
302000
003023
,
201030
000000
000000
300000
010010
000000
000000
010010
100001
001100
010010
000000
001000
000000
000010
000000
,
100020
000000
000000
000000
101000
000000
000000
000001
000100
000000
100000
000000
020130
000000
000001
000000
,
032100
000000
000010
000000
103020
000000
002030
000001
023010
000000
100000
001000
000100
000000
030001
000000
,
101000
000001
010010
000100
101010
000000
100001
010000
001011
100000
000000
010000
000001
000000
100000
000000
,
011000
000100
000010
010000
100010
000100
001000
000100
101000
000010
000000
000010
101000
010000
000100
000000
,
100001
000100
000010
010000
001000
100000
001000
000010
101000
000010
000000
010000
001010
010000
000001
000000
,
101000
010000
001100
010000
001010
000100
000011
010000
001100
100000
001100
010000
101000
000100
000010
000000
,
010100
001000
000100
000010
000100
100000
010000
001000
000001
000100
000000
010000
100010
000100
010010
000000
,
100010
010000
001000
000010
100000
001000
000001
001000
100000
000001
000000
000100
200010
000000
001000
000000
,
320001
000010
000100
001000
100000
001000
000100
000010
230001
000010
000100
001000
320100
000010
000001
000010
,
230100
001000
010000
001000
000100
000010
000001
000010
320100
001000
100000
001000
000100
000010
000001
000010
,
030100
000000
000001
000010
000100
000000
000000
000000
000101
000000
100000
000100
000010
000000
000001
000000
,
100100
000000
010000
001000
000100
000010
000001
000000
100001
010010
001100
000000
000101
000000
001000
000000
,
000101
000000
010000
001000
000100
000000
000000
000000
001000
010000
100000
000000
000001
000000
000010
000000
,
000100
000000
000000
000000
000000
000000
000000
000000
000100
000000
000000
000000
001000
000000
000000
000000
010000
000000
000000
000000
000000
000000
000000
000000
100000
000000
000000
000000
000000
000000
000000
000000
000001
000000
000000
000000
000010
000000
000000
000000
000100
000000
000000
000000
001000
000000
000000
000000
020000
002000
000200
000000
000000
000000
000000
000000
000000
000000
000000
000000
000000
000000
000000
000000
,
233302
000000
300003
000000
;

//---------------dance-solo - Copied from Copied f----------------
#NOTES:
     dance-solo:
     Copied from Copied f:
     Medium:
     4:
     0.612,0.827,0.995,0.288,0.233,384.000,128.000,37.000,0.000,15.000:
110000
000000
000100
000010
001000
000000
000000
000000
,
101000
000000
000001
001000
000100
000000
100000
000000
,
000101
000000
000010
100000
001000
000010
010000
000000
,
100010
000100
001000
000000
100001
000000
001001
000000
,
000101
000000
010000
000100
000001
000000
000000
000000
,
011000
100000
000010
000000
110000
000000
001010
000000
,
000011
000000
100000
000010
010001
000000
010001
000000
,
101000
200000
000000
000000
,
310001
000000
001010
000100
011000
000000
100001
000000
,
100100
000000
000110
100001
001010
000000
200001
000000
,
300100
000000
100010
001001
010010
001100
010010
000000
,
100100
000011
101000
000000
001010
000000
000011
000000
,
110000
000000
010001
000100
010010
000000
000000
000000
,
000000
000000
010010
100000
001001
000000
000010
000000
,
100001
000000
000101
000010
101000
000000
000001
000000
,
200100
001000
000010
000001
,
310021
000000
000000
000000
000000
000000
000100
001000
020030
000000
000000
000000
000000
000000
030001
000010
,
000200
000000
000000
001300
000100
000010
000100
001000
100000
010000
001000
000100
001000
000100
000010
000001
,
000210
000000
000000
000000
000000
000000
000301
000010
,
102000
000000
000000
000000
000000
000000
003001
000010
,
200100
000000
000000
000000
300001
000010
000100
001000
,
100002
000000
110000
000000
100000
001000
000100
000010
,
000113
000000
100100
000000
000001
000010
001100
010010
,
100001
000000
010000
000000
000010
001000
010010
010010
,
010010
000000
001001
010000
000001
000100
001000
010000
,
100000
000000
000001
000000
010010
000100
001000
000000
100001
000000
000000
000000
010000
001000
000100
000010
,
011000
000000
000000
000100
001000
000000
000000
000000
000000
000000
000000
000000
000100
001000
010000
100000
,
000101
000000
000000
000100
000010
000000
001000
010000
000000
000000
000000
000000
001000
000100
000010
000001
,
001100
000000
000000
000001
000100
000000
000010
010000
000110
000000
000001
000000
100010
000000
000001
000000
,
001100
000000
000000
000000
001000
000000
002000
000000
000000
000000
000000
003000
000001
000010
000100
001000
,
000101
000000
000000
000000
001100
000000
000000
000000
001100
000000
000000
000000
000100
001000
010000
100000
,
001100
001100
001100
000101
,
000020
000000
000000
000000
,
020030
000000
000000
000001
000010
001000
000010
000001
,
031000
000000
000000
000000
000000
000000
000100
000000
001000
000000
000100
000000
001000
000000
000100
000000
000002
000000
000000
000000
000000
000000
000103
001000
010000
000000
000100
000000
000010
000000
000001
000000
,
000200
000000
000000
000000
000000
000000
100000
010000
001300
000000
000100
000000
000010
000000
000001
000000
000100
000000
001000
000000
000010
000000
000000
001000
000100
000010
010000
000000
001000
000000
000100
000000
,
100001
000000
000000
000000
000110
000000
000000
000010
010000
000000
000100
000000
000010
000000
001000
000000
,
001001
000000
000000
000000
100100
000000
000000
000010
000100
000000
000001
000000
000010
000000
000100
000000
,
101000
000000
000000
000000
000001
000000
000000
000010
010000
000000
000100
000000
010000
000000
000001
000000
,
000010
001000
020000
000000
000000
000000
000101
000000
,
030101
000000
000000
000000
001100
000000
000000
100000
000010
000000
001000
000000
000100
000000
000010
000000
,
001001
000000
000000
000000
100100
000000
000000
000001
100000
000100
000010
000000
000100
000000
000001
000000
,
001010
000000
000000
000000
100100
000000
000000
010000
000010
000000
000100
000000
010000
000000
001000
000000
,
010010
000100
012001
000000
000000
000000
000000
000000
,
013200
000000
001300
000001
200100
000000
000000
000000
,
000001
301010
000100
001000
,
200001
000000
000000
000000
300010
000100
001000
000010
,
001000
000001
002001
000000
003100
000000
200000
000000
,
302000
000000
003101
000010
002100
000000
003010
000000
,
200001
000000
000000
300000
010010
000000
000000
000000
000100
000000
000000
000000
000010
000000
000000
000000
,
001200
000000
100001
000000
010000
000000
001300
000100
,
000010
000001
000100
000000
200001
000000
000010
300000
,
100001
010010
001100
100001
001100
000000
000000
000000
,
000010
001001
100100
000101
,
100100
000000
000001
001000
,
110000
011000
001100
000110
000011
000110
001100
011000
,
110000
000000
000100
000000
001000
000000
010001
101000
,
010001
000001
001000
000002
,
200003
000000
300002
002003
,
023000
000000
000010
001000
030102
000000
000000
000000
,
001103
000000
001000
000100
000010
000000
000000
000000
000110
000000
010000
001000
000100
000000
000010
000000
,
000101
000000
000100
001000
010000
000100
000010
000000
100100
010010
001001
000000
000101
000000
001000
000000
,
000110
000000
010000
001000
000100
000000
000000
000000
000001
000100
010000
000000
000001
000000
000010
000000
,
000100
000000
000000
000000
000000
000000
000000
000000
000100
000000
000000
000000
001000
000000
000000
000000
010000
000000
000000
000000
000000
000000
000000
000000
000001
000000
000000
000000
000000
000000
000000
000000
100000
000000
000000
000000
010000
000000
000000
000000
000010
000000
000000
000000
000001
000000
000000
000000
020000
002000
000200
000000
000000
000000
000000
000000
000000
000000
000000
000000
000000
000000
000000
000000
,
033320
000000
000030
000000
;
